Forum

Post a new question

Categories:

Tags:

VOD: Звук есть видео нет

Eugen 2017-04-24 12:12:06 UTC in Nimble Streamer
0e26e015cc76f96acfed49946beb4eae

Добрый день!
Настроил Маршрутизацию, положил файл в папку, если обращаюсь так:
http://example.com/vod/file.mp4 проблем нет, а вот если так:
http://example.com/vod/file.mp4/playlist.m3u8 есть только звук.
Input #0, mov,mp4,m4a,3gp,3g2,mj2, from 'BP6_624x480.mp4':
Metadata:
major_brand : isom
minor_version : 512
compatible_brands: isomiso2avc1mp41
encoder : Lavf55.33.100
Duration: 00:48:40.36, start: 0.000000, bitrate: 1292 kb/s
Stream #0.0(und): Video: h264 (High), yuv420p, 624x480 [PAR 1:1 DAR 13:10], 1095 kb/s, 25 fps, 25 tbr, 12800 tbn, 50 tbc
Stream #0.1(und): Audio: aac, 48000 Hz, stereo, s16, 192 kb/s

Alex Pokotilo 2017-04-25 05:51:12 UTC
B0af1cee7eb1e40dd284d9982b3aef70

Hi,
you can get help from people who speak English writing your queries in English. It hard to say anything per provided information as hls transmuxing should work for this case.
Please look at your /var/log/nimble.log and check if you got something there and then start new support thread via https://wmspanel.com/contact and provide all possible information including valid hls url and logs parts there.

Post a reply